The Walking Dead S08E16

Fernsehserie
The Walking Dead S08E16

The Walking Dead S08E16
HDTV | MKV | 1280x720 | English | H264 @ 6345 kbps | AC-3 @ 192 kbps | 45 min 44 s | 2.13 GiB
Genre: Drama

The Walking Dead spielt bislang in der Metropolregion von Atlanta, im Südosten der Vereinigten Staaten, und erzählt vom Kampf einer kleinen Gruppe Überlebender nach einer weltweiten Zombie-Apokalypse. Unter Führung des Sheriffs Rick Grimes ist die Gruppe auf der Suche nach einer dauerhaften und vor allem sicheren Bleibe. Dabei stellen die fast überall präsenten Untoten eine permanent vorhandene Bedrohung dar, die jederzeit ohne Vorwarnung zuschlagen kann. Im Laufe der Zeit wird die Gruppe daher zwangsläufig immer kleiner, da manche Mitglieder den Zombies, gruppenintern auch Beißer oder Streuner (engl. „Biter“ und „Walker“) genannt, zum Opfer fallen, andere die Gruppe verlassen oder sich für den Tod entscheiden. Gleichzeitig kommen ab und zu neue Personen hinzu, wodurch „Verluste“ teilweise ausgeglichen werden können. Während ihre Situation immer aussichtsloser wird, ist die Gruppe zu fast allem bereit, um zu überleben. Die Suche nach einem sicheren Ort führt die Überlebenden durch von Untoten überrannte Städte, durch Wälder, über Highways, zu Militäranlagen und geheimen Forschungseinrichtungen. Überall, wo die Gruppe hingelangt, hat die Seuche bereits gewütet und nahezu alle Menschen in Zombies verwandelt. Dennoch findet sie vereinzelt auch andere Überlebende, die sich ebenfalls zusammengeschlossen haben und teils friedlich, teils neutral, teils aber auch feindlich gesinnt sind.

Die wilde Lucille S08E16 German uncut 720p.mkv (2.1 GB)



General
Unique ID : 250511300970007382150406813890906205101 (0xBC76B8BA6BB29512ABC403F9CF80ABAD)
Complete name : ./Die wilde Lucille S08E16 German uncut 720p/Die wilde Lucille S08E16 German uncut 720p.mkv
Format : Matroska
Format version : Version 1
File size : 2.13 GiB
Duration : 45 min 44 s
Overall bit rate : 6 670 kb/s
Encoded date : UTC 2018-04-16 19:56:48
Writing application : mkvmerge v2.2.0 ('Turn It On Again') built on Mar 4 2008 12:58:26
Writing library : libebml v0.7.7 + libmatroska v0.8.1

Video
ID : 1
Format : AVC
Format/Info : Advanced Video Codec
Format profile : High@L4.1
Format settings : CABAC / 5 Ref Frames
Format settings, CABAC : Yes
Format settings, RefFrames : 5 frames
Codec ID : V_MPEG4/ISO/AVC
Duration : 45 min 44 s
Bit rate : 6 345 kb/s
Width : 1 280 pixels
Height : 720 pixels
Display aspect ratio : 16:9
Frame rate mode : Constant
Frame rate : 25.000 FPS
Original frame rate : 23.976 (24000/1001) FPS
Color space : YUV
Chroma subsampling : 4:2:0
Bit depth : 8 bits
Scan type : Progressive
Bits/(Pixel*Frame) : 0.275
Stream size : 2.03 GiB (95%)
Writing library : x264 core 155 r2901 7d0ff22
Encoding settings : cabac=1 / ref=5 / deblock=1:0:0 / analyse=0x3:0x113 / me=hex / subme=8 / psy=1 / psy_rd=1.00:0.00 / mixed_ref=1 / me_range=16 / chroma_me=1 / trellis=2 / 8x8dct=1 / cqm=0 / deadzone=21,11 / fast_pskip=1 / chroma_qp_offset=-2 / threads=22 / lookahead_threads=3 / sliced_threads=0 / nr=0 / decimate=1 / interlaced=0 / bluray_compat=0 / constrained_intra=0 / bframes=3 / b_pyramid=2 / b_adapt=1 / b_bias=0 / direct=3 / weightb=1 / open_gop=0 / weightp=2 / keyint=250 / keyint_min=23 / scenecut=40 / intra_refresh=0 / rc_lookahead=50 / rc=crf / mbtree=1 / crf=18.0 / qcomp=0.60 / qpmin=0 / qpmax=69 / qpstep=4 / ip_ratio=1.40 / aq=1:1.00
Default : Yes
Forced : No
Color range : Limited
Matrix coefficients : BT.709

Audio
ID : 2
Format : AC-3
Format/Info : Audio Coding 3
Format settings, Endianness : Big
Codec ID : A_AC3
Duration : 45 min 44 s
Bit rate mode : Constant
Bit rate : 192 kb/s
Channel(s) : 2 channels
Channel positions : Front: L R
Sampling rate : 48.0 kHz
Frame rate : 31.250 FPS (1536 SPF)
Bit depth : 16 bits
Compression mode : Lossy
Stream size : 62.8 MiB (3%)
Service kind : Complete Main
Default : Yes
Forced : No





The Walking Dead S08E16


The Walking Dead S08E16


The Walking Dead S08E16


The Walking Dead S08E16


The Walking Dead S08E16